How I Met Your Mother | IMDB: 7.0 / 10 YERLİ FILM 1080P Dönerse Senindir 2017 Yerli Film izle TÜR 2017 Filmleri, Komedi Filmleri, Romantik Filmler, Yerli Filmler YAPIM YILI 2017 SÜRE 102 Dak. IMDB 7.0 / 10 KALİTE 1080P SEÇENEKLER YERLİ FILM Murat Boz’un fotoğraf sanatçısı Mehmet karakteri ile karşımıza Dönerse Senindir hayatının aşkını geri kazanmaya çalışan Mehmet’in romantik ve komik hikayesini a ... Dönerse Senindir 2017 Yerli Film izle | Фильмы + Подростковая жестокость
[Login] or [Signup]
Login
Username:
Password:
[Signup]
[Recover Account]


Poll


You must be logged in to view polls



Torrent Details For "The Pirates of Somalia 2017 1080p BRRip AC3 5.1 x264 ESub"

The Pirates of Somalia 2017 1080p BRRip AC3 5.1 x264 ESub

Download this torrent | Magnet Download
Health:
Seeds: 67
Leechers: 313
Completed: 75 
Last Checked: 11-01-2018 18:18:38
External Torrent
Update Stats
Download Magnet


Poster
No poster


Watch-Free-HD     Download

Details
Name:The Pirates of Somalia 2017 1080p BRRip AC3 5.1 x264 ESub
Description:

 

General
Format                      : Matroska
Format version              : Version 4 / Version 2
File size                   : 1.43 GiB
Duration                    : 1 h 57 min
Overall bit rate            : 1 735 kb/s

Video
ID                          : 1
Format                      : AVC
Format/Info                 : Advanced Video Codec
Format profile              : [email protected]
Format settings             : CABAC / 4 Ref Frames
Format settings, CABAC      : Yes
Format settings, ReFrames   : 4 frames
Codec ID                    : V_MPEG4/ISO/AVC
Duration                    : 1 h 57 min
Bit rate                    : 1 550 kb/s
Width                       : 1 920 pixels
Height                      : 800 pixels
Display aspect ratio        : 2.40:1
Frame rate mode             : Constant
Frame rate                  : 23.976 (24000/1001) FPS
Color space                 : YUV
Chroma subsampling          : 4:2:0
Bit depth                   : 8 bits
Scan type                   : Progressive
Bits/(Pixel*Frame)          : 0.042
Stream size                 : 1.21 GiB (85%)
Default                     : Yes
Forced                      : No

Audio
ID                          : 2
Format                      : AC-3
Format/Info                 : Audio Coding 3
Codec ID                    : A_AC3
Duration                    : 1 h 57 min
Bit rate mode               : Constant
Bit rate                    : 256 kb/s
Channel(s)                  : 6 channels
Channel positions           : Front: L C R, Side: L R, LFE
Sampling rate               : 48.0 kHz
Frame rate                  : 31.250 FPS (1536 SPF)
Bit depth                   : 16 bits
Compression mode            : Lossy
Stream size                 : 216 MiB (15%)
Language                    : English
Service kind                : Complete Main
Default                     : Yes
Forced                      : No

Text
ID                          : 3
Format                      : UTF-8
Codec ID                    : S_TEXT/UTF8
Codec ID/Info               : UTF-8 Plain Text
Duration                    : 1 h 54 min
Bit rate                    : 100 b/s
Count of elements           : 2065
Stream size                 : 84.3 KiB (0%)
Language                    : English
Default                     : Yes
Forced                      : No





 http://pichub.site/image/VrL5
 http://pichub.site/image/VLCJ
 http://pichub.site/image/V048
 http://pichub.site/image/VvlX
 http://pichub.site/image/VUAI
 http://pichub.site/image/VNIg

Category:Movies > 1080P Bluray
Lang:English  English
Total Size:1.43 GB
Info Hash:7c3bdfd94403ddc1adad6b1aec3bcb140a472197
Added By:Freaky
Date Added:11-01-2018 16:41:15
Views:178
Hits:21

Download Torrent

Ratings:Not Yet Rated (Log in to rate it)


Tracker:
http://ipv4.tracker.harry.lu/announce

This Torrent also has backup trackers
URLSeedersLeechersCompleted
http://ipv4.tracker.harry.lu/announce85412
http://ipv4.tracker.harry.lu:80/announce85412
http://tracker.electro-torrent.pl/announce000
http://tracker.electro-torrent.pl:80/announce000
http://retracker.mgts.by:80/announce000
http://pt.lax.mx:80/announce000
http://tracker.torrentyorg.pl:80/announce000
http://163.172.180.68/announce85312
http://82.209.230.66/announce8383
http://107.174.238.55:80/announce000
http://t.nyaatracker.com/announce000
http://t.nyaatracker.com:80/announce7404


File List: 


Comments

No comments still posted

Powered by 10 Hamsters v2-svn -|- Page Generated In 0.054634 secs.
-|- RSS Feed -|- Feed Info
Theme By: Nikkbu