Brian d'Arcy James | Black Hand | Todd Haynes
[Login] or [Signup]
Login
Username:
Password:
[Signup]
[Recover Account]


Poll


You must be logged in to view polls



Torrent Details For "Haseena Parkar 2017 HD Dual Audio English Hindi GOPISAHI"

Haseena Parkar 2017 HD Dual Audio English Hindi GOPISAHI

Download this torrent | Magnet Download
Health:
Seeds: 8
Leechers: 2,681
Completed:
Last Checked: 12-01-2018 12:12:43
External Torrent
Update Stats
Download Magnet


Poster


iMDB
Imdb Picture Title: Haseena
Year: 2017
Runtime: 135 minutes
Votes: 49
Rating: 5.2/10
Country: India
All Genres: Biography, Crime, Thriller
Plot Outline: This is the story of the slightly-less-notorious sister of a notorious gangster.
Tagline: The Queen of Mumbai
Director: Apoorva Lakhia
Writing By: Suresh Nair,Chintan Gandhi,
Produced By: Sameer Antulay,Prashant Desai,Nahid Khan,Sameer A. Shaikh,Babu Tyagi,
Music: Amar Mohile
Cast:
Shraddha Kapoor as Haseena
Ankur Bhatia as Ibrahim Parkar
Siddhant Kapoor as Dawood
Uttam Halder as Dawood's Friend
Charanpreet Singh as David Pardesi
Rajesh Tailang as Shyam Keswani
Satendra Bagasi as
Laksh Lalwani as
Raj as
Nitin Singh as


Watch-Free-HD     Download

Details
Name:Haseena Parkar 2017 HD Dual Audio English Hindi GOPISAHI
Description:

Format                         : Matroska
Format version                 : Version 4 / Version 2
File size                      : 496 MiB
Duration                       : 1 h 57 min
Overall bit rate               : 590 kb/s

Video
Format                         : AVC
Codec ID                       : V_MPEG4/ISO/AVC
Duration                       : 1 h 57 min
Bit rate                       : 500 kb/s
Width                          : 1 280 pixels
Height                         : 544 pixels
Display aspect ratio           : 2.35:1
Frame rate mode                : Constant
Frame rate                     : 23.976 (24000/1001) FPS
Stream size                    : 420 MiB (85%)
Writing library                : x264 core 148 r2708 86b7198

Audio
Format                         : AAC
Duration                       : 1 h 57 min
Bit rate                       : 88.1 kb/s
Channel(s)                     : 6 channels
Channel positions              : Front: L C R, Side: L R, LFE
Sampling rate                  : 44.1 kHz
Frame rate                     : 43.066 FPS (1024 SPF)
Stream size                    : 74.1 MiB (15%)


Category:Movies > Bollywood
Lang:Hindi
Total Size:496.36 MB
Info Hash:66a6961736758cfd49e82b7ad45c4265e54292b7
Added By:gopisahi
Date Added:12-01-2018 06:15:02
Views:425
Hits:115

Download Torrent

Ratings:Not Yet Rated (Log in to rate it)


Tracker:
http://ipv4.tracker.harry.lu/announce

This Torrent also has backup trackers
URLSeedersLeechersCompleted
http://ipv4.tracker.harry.lu/announce13710
http://ipv4.tracker.harry.lu:80/announce13710
http://163.172.180.68:80/announce13710
http://t.nyaatracker.com/announce000
http://tracker.devil-torrents.pl:80/announce000
http://tracker.devil-torrents.pl/announce000
http://open.kickasstracker.com/announce23830
http://163.172.180.68/announce13710
http://t.nyaatracker.com:80/announce02450
http://retracker.mgts.by:80/announce02240
http://45.33.11.224/announce000
http://tracker.torrentyorg.pl:80/announce000
http://pt.lax.mx:80/announce000


File List: 


Comments

No comments still posted

Powered by 10 Hamsters v2-svn -|- Page Generated In 0.245543 secs.
-|- RSS Feed -|- Feed Info
Theme By: Nikkbu