One Sunny Day (2014) | Highlander : Soif de vengeance | NETGATE Registry Cleaner Full Crack - Tối ưu hóa hệ thống
[Login] or [Signup]
Login
Username:
Password:
[Signup]
[Recover Account]


Poll


You must be logged in to view polls



Torrent Details For "Goodbye Christopher Robin (2017) BluRay 720p Dual Audio [Hindi DD5.1 - Eng DD2.0] - Msubs ~ Ran..."

Goodbye Christopher Robin (2017) BluRay 720p Dual Audio [Hindi DD5.1 - Eng DD2.0] - Msubs ~ Ran...

Download this torrent | Magnet Download
Health:
Seeds: 394
Leechers: 519
Completed: 849 
Last Checked: 14-01-2018 07:34:17
External Torrent
Update Stats
Download Magnet


Poster


iMDB
Imdb Picture Title: Goodbye Christopher Robin
Year: 2017
Runtime: 107 minutes
Votes: 2997
Rating: 7.2/10
Language: English
Country: UK
All Genres: Biography, Family, History
Plot Outline: A behind-the-scenes look at the life of author A.A. Milne and the creation of the Winnie the Pooh stories inspired by his son C.R. Milne.
Tagline: Inspired by the True Story
Director: Simon Curtis
Writing By: Frank Cottrell Boyce,Simon Vaughan,
Produced By: Steve Christian,Simon Curtis,Mark Hubbard,Damian Jones,Simon Vaughan,
Music: Carter Burwell
Cast:
Vicki Pepperdine as Betty
Margot Robbie as Daphne Milne
Domhnall Gleeson as Alan Milne
Will Tilston as Christopher Robin Aged 8
Alex Lawther as Christopher Robin Aged 18
Stephen Campbell Moore as Ernest
Richard McCabe as Rupert
Geraldine Somerville as Lady O
Mossie Smith as Sharon the Midwife
Stanley Hamblin as Christopher Robin Aged 6 Months
Trailers:
Official Trailer
Official Trailer


Watch-Free-HD     Download

Details
Name:Goodbye Christopher Robin (2017) BluRay 720p Dual Audio [Hindi DD5.1 - Eng DD2.0] - Msubs ~ Ran...
Description:
Goodbye Christopher Robin (2017) BluRay 720p Dual Audio [Hindi DD5.1 - Eng DD2.0] - Msubs ~ Ranvijay







Thanks To Mr Rajput For Hindi Audio

Format                                   : Matroska
Format version                           : Version 4 / Version 2
File size                                : 1.32 GiB
Duration                                 : 1 h 47 min
Overall bit rate                         : 1 765 kb/s
Movie name                               : Goodbye Christopher Robin (2017) 720p Bluray Dual Audio [Hindi DD5.1 - Eng DD2.0] - Msubs ~ Ranvijay

Video
Duration                                 : 1 h 47 min
Bit rate                                 : 1 205 kb/s
Width                                    : 1 280 pixels
Height                                   : 688 pixels
Display aspect ratio                     : 1.85:1
Frame rate mode                          : Constant
Frame rate                               : 23.976 (24000/1001) FPS
Stream size                              : 921 MiB (68%)
Title                                    : ~Ranvijay~
Default                                  : Yes
Forced                                   : No

Audio #1
ID                                       : 2
Format                                   : AC-3
Format/Info                              : Audio Coding 3
Codec ID                                 : A_AC3
Duration                                 : 1 h 47 min
Bit rate mode                            : Constant
Bit rate                                 : 448 kb/s
Channel(s)                               : 6 channels
Channel positions                        : Front: L C R, Side: L R, LFE
Sampling rate                            : 48.0 kHz
Frame rate                               : 31.250 FPS (1536 SPF)
Bit depth                                : 16 bits
Compression mode                         : Lossy
Stream size                              : 343 MiB (25%)
Title                                    : ~Ranvijay~
Language                                 : Hindi
Service kind                             : Complete Main
Default                                  : Yes
Forced                                   : No

Audio #2
ID                                       : 3
Format                                   : AAC
Format/Info                              : Advanced Audio Codec
Format profile                           : HE-AAC / LC
Format settings                          : Explicit
Codec ID                                 : A_AAC-2
Duration                                 : 1 h 47 min
Bit rate                                 : 100.0 kb/s
Channel(s)                               : 2 channels
Channel positions                        : Front: L R
Sampling rate                            : 48.0 kHz / 24.0 kHz
Frame rate                               : 23.438 FPS (1024 SPF)
Compression mode                         : Lossy
Delay relative to video                  : 31 ms
Stream size                              : 76.5 MiB (6%)
Title                                    : ~Ranvijay~
Language                                 : English
Default                                  : No
Forced                                   : No

Text #1
ID                                       : 4
Format                                   : UTF-8
Codec ID                                 : S_TEXT/UTF8
Codec ID/Info                            : UTF-8 Plain Text
Duration                                 : 1 h 40 min
Bit rate                                 : 63 b/s
Count of elements                        : 1670
Stream size                              : 46.9 KiB (0%)
Title                                    : ~Ranvijay~
Language                                 : English
Default                                  : No
Forced                                   : No

Text #2
ID                                       : 5
Format                                   : PGS
Muxing mode                              : zlib
Codec ID                                 : S_HDMV/PGS
Codec ID/Info                            : Picture based subtitle format used on BDs/HD-DVDs
Duration                                 : 1 h 45 min
Bit rate                                 : 31.5 kb/s
Count of elements                        : 2852
Stream size                              : 23.8 MiB (2%)
Title                                    : ~Ranvijay~
Language                                 : Hindi
Default                                  : Yes
Forced                                   : No

           

Category:Movies > Hollywood Dub
Lang:Hindi
Total Size:1.32 GB
Info Hash:88922847c6d6f0ebf1b6192bdb2554ae2e328e14
Added By:Shrawankk
Date Added:13-01-2018 08:38:45
Views:1,343
Hits:196

Download Torrent

Ratings:Not Yet Rated (Log in to rate it)


Tracker:
http://bigfoot1942.sektori.org:6969/announce

This Torrent also has backup trackers
URLSeedersLeechersCompleted
http://bigfoot1942.sektori.org:6969/announce000
http://tracker2.wasabii.com.tw:6969/announce000
http://announce.torrentsmd.com:6969/announce000
http://glotorrents.pw:80/announce000


File List: 


Comments

No comments still posted

Powered by 10 Hamsters v2-svn -|- Page Generated In 1.837191 secs.
-|- RSS Feed -|- Feed Info
Theme By: Nikkbu