666 Devilish Charm 2014 1080p AMZN WEB-DL H264-QOQ () | Cuando Eramos Soldados BLuRayRip | Tam Görünüm
[Login] or [Signup]
Login
Username:
Password:
[Signup]
[Recover Account]


Poll


You must be logged in to view polls



Torrent Details For "Tumhari Sulu (2017) - 2CD - HD Rip[Xvid - Mp3]"

Tumhari Sulu (2017) - 2CD - HD Rip[Xvid - Mp3]

Download this torrent | Magnet Download
Health:
Seeds: 39
Leechers: 3
Completed:
Last Checked: 14-01-2018 01:40:00
External Torrent
Update Stats
Download Magnet


Poster


iMDB
Imdb Picture Title: Tumhari Sulu
Year: 2017
Runtime: 150 minutes
Votes: 43
Rating: 7.9/10
Language: Hindi
Country: India
All Genres: Comedy, Drama
Plot Outline: Vidya Balan (Sulochana a.k.a. Sulu) essays the role of a beautiful, enthusiastic and happy-go-lucky Mumbai housewife whose routine life changes when she unexpectedly lands herself with the ...
Director: Suresh Triveni
Writing By: Suresh Triveni,
Produced By: Vicky Bhatia,Hanif Chunawala,Deepika Gandhi,Tanuj Garg,Akshiti Goleria,Atul Kasbekar,Bhushan Kumar,Krishan Kumar,Shanti Sivaram Maini,
Cast:
Vidya Balan as Sulochana / Sulu
Neha Dhupia as Maria
Manav Kaul as Ashok
Vijay Maurya as Pankaj
Santanu Ghatak as Sanjay / Music Composer
Trupti Khamkar as Lady Driver
Malishka Mendonsa as RJ Albeli Anjali
Sindhu Shekharan as Aradhana
Uday Lagoo as Sulu's Father
Abhishek Sharma as Pranav
Trailers:
Official 'Tumhari Sulu' Trailer
Tumhari Sulu Official Teaser


Watch-Free-HD     Download

Details
Name:Tumhari Sulu (2017) - 2CD - HD Rip[Xvid - Mp3]
Description:
 Tumhari Sulu (2017) - 2CD -
HD Rip[Xvid - Mp3]  
 





General
Format                                   : AVI
Format/Info                              : Audio Video Interleave
File size                                : 1.40 GiB
Duration                                 : 2 h 40 min

Video
ID                                       : 0
Format                                   : MPEG-4 Visual
Format profile                           : Advanced [email protected]
Format settings                          : BVOP1
Format settings, BVOP                    : 1
Format settings, QPel                    : No
Format settings, GMC                     : No warppoints
Format settings, Matrix                  : Default (H.263)
Codec ID                                 : XVID
Duration                                 : 2 h 40 min
Bit rate                                 : 1 118 kb/s
Width                                    : 720 pixels
Height                                   : 392 pixels
Display aspect ratio                     : 1.85:1
Frame rate                               : 25.000 FPS
Color space                              : YUV
Chroma subsampling                       : 4:2:0
Bit depth                                : 8 bits
Scan type                                : Progressive
Compression mode                         : Lossy
Bits/(Pixel*Frame)                       : 0.158
Stream size                              : 1.25 GiB (89%)

Audio
ID                                       : 1
Format                                   : MPEG Audio
Format version                           : Version 1
Format profile                           : Layer 3
Format settings                          : Joint stereo / MS Stereo
Codec ID                                 : 55
Codec ID/Hint                            : MP3
Duration                                 : 2 h 40 min
Bit rate mode                            : Constant
Bit rate                                 : 128 kb/s
Channel(s)                               : 2 channels
Sampling rate                            : 48.0 kHz
Stream size                              : 147 MiB (10%)


Thumbnail




Category:Movies > HDRips
Lang:Hindi
Total Size:1.40 GB
Info Hash:6745c939b0344020981b56e933e1cc95ec67bd49
Added By:Pherarim
Date Added:13-01-2018 12:52:08
Views:86
Hits:13

Download Torrent

Ratings:Not Yet Rated (Log in to rate it)

  


Tracker:
udp://9.rarbg.me:2710/announce


File List: 


Comments

No comments still posted

Powered by 10 Hamsters v2-svn -|- Page Generated In 1.050747 secs.
-|- RSS Feed -|- Feed Info
Theme By: Nikkbu